About 17,160 results found. (Query 0.04638 seconds)
XenForo Debug Output Page Time: 0.1135s Memory: 4.5582 MB (Peak: 4.9103 MB) Queries (12, time: 0.0261s, 23.0%) SELECT cache_value FROM xf_permission_combination WHERE permission_combination_id = ? Params: 1 Run Time: 0.000536 Select Type Table Type Possible Keys Key Key Len Ref Rows Extra SIMPLE
OnionDir Deep Web Hosting | Secured and Anonymous | Linux PHP hosting 100MB and Unlimited Bandwidth Deep Web Hosting | Secured and Anonymous | Linux PHP hosting 100MB and Unlimited Bandwidth Hidden Onion Hosting your own .onion Hosting, your own .onion Domain and website, PHP, Zeus hosting - Instant Access + Free
dB -12.02 dB 7:38 02 - Black Flag [flac] DR7 -0.55 dB -10.65 dB 9:56 03 - Miracles for America (Edit) [flac] DR9 -0.00 dB -12.48 dB 9:58 04 - Vertigo [flac] DR9 -1.06 dB -15.63 dB 5:32 05 - The Bridge [flac] DR10 -0.05 dB -17.33 dB 5:40 06 - Ascending to the Stars [flac] DR10 -0.28 dB -13.46 dB 5:46 07 - Wicked Old
dB -17.18 dB 4:10 01-A New Decade DR10 -4.65 dB -15.62 dB 3:35 02-This Is Music DR12 -4.78 dB -17.75 dB 3:33 03-On Your Own DR11 -4.78 dB -17.33 dB 6:11 04-So It Goes DR11 -4.51 dB -17.17 dB 6:33 05-A Northern Soul DR11 -4.78 dB -16.91 dB 5:11 06-Brainstorm Interlude DR12 -5.04 dB -18.57 dB 6:52 07-Drive You Home DR11
dbs(https://mega.nz/#F!0Qol2bKI!ljagwFIX7NFqeCniDYibPA!gYBnEbbI) 28.400 plus dbs(https://cracked.to/Thread-BIGGEST-DB-COLLECTION-400-DB-s-FRESH-DB-s-POPULAR-SITES?pid=760560#pid760560) 29.https://mega.nz/#F!OQQzmCiL!Uq93uQzybyRQgd5bLGOYUw
db. tor project.org. tor project-admin... http://2d5quh2deowe4kpd.onion - 07 Jun 2019 Debian CD search engine Skip Quicknav About Debian Getting Debian Documentation Support Developers Corner cdimage-search.debian.org DebianonCD FAQ Network Install Buy CDs or DVDs Download Download with Jigdo Download via HTT...
Mi TORmento es mental
dB. The sensitivity is somewhere around -110 dBm typically. The highest safe sample rate is 2.56 MS/s but in some situations up to 3.2 MS/s works without USB dropping samples (RTL2832U drops them internally). Because the devices use complex sampling (I/Q) the sample rate is equal to the bandwidth instead of just half
No information is available for this page.
Lintian Package Index: G-L Lintian Reports Maintainers Emitted Tags All Tags Packages Package Index: G-L This is a list of all source packages that have at least one lintian tag. This includes all tags, even experimental and info tags and tags that were overridden. The list is huge, so it's broken into four separate
3.000+ Reviews ★★★★★ - The smartest Money on the Deep Web
3.000+ Reviews ★★★★★ - The smartest Money on the Deep Web
official cash god website, we are a group who support anyone looking for financial help. It could be money for health, shelter, food, start up or whatever. We got you covered, we have been selling preshredded cash on the dark web since 2015. Our aim is
db.dump 2018-08-18 15:30 7.9M Apache Server at cmgvqnxjoiqthvrc.onion Port 80
Dumps + PIN - GoldCard-Shopping @ Darkweb Dumps + PIN Go to main menu Go to page contents Go to search box Basket Products in basket: 0 Company NEWS! FAQ Customer Feedback Contact Us Your trusted Shop for Creditcards, Payment Solutions, Exchanges and more search Products Credit Cards Dumps + PIN Western Union
Below are two tables showing the two problem classes that prevent cross compilation on the dependency level. This example tries to satisfy the crossbuild dependencies of all source packages on amd64 as the build architecture for a dummy architecture generated from amd64 (called armhf here) as the host architecture in
db = "dummyregistry" db_user = "rester" db_encoding = "UTF-8" web_encoding = "UTF-8" max_words = 50 if debug: import cgitb; cgitb.enable() class NotFound(Exception): pass html_page = """ The title The title The content Home """ % prefix home_blurb = """ This is just an experimental Web site. Do not ask questions about
XenForo Debug Output Page Time: 0.0477s Memory: 3.9399 MB (Peak: 4.0447 MB) Queries (9, time: 0.0220s, 46.1%) SELECT data_key, data_value FROM xf_data_registry WHERE data_key IN ('addOns', 'addOnsComposer', 'autoJobRun', 'bbCodeMedia', 'classExtensions', 'codeEventListeners', 'connectedAccountCount', 'contentTypes',
IntelExchange Quick & Dirty Read-Only Mirror: Topic View: Unverified Users Section > Mossad website vulnrable IntelExchange Quick & Dirty Read-Only Mirror: Topic View: Unverified Users Section > Mossad website vulnrable Categories | Latest topics | Top contributors | Search | Disable Safe Mode | Login | Create account
Porno Girls Public As Well As Whimperingly Genitive Bitch Tube Porn Kraal ~ Minet Porno Video Rolik ~ After breakfast she headed out to the car to get some clean underwear and a nice shirt but would keep the jeans she had put on earlier. As she came back