About 651 results found.
Filter applied: domain = librarymdiphasqw.onion
Searches related to 172.16.227.0.xx.xxx.239452797.pixel.archiveiya74codqgiixo33q62qlrqtkgmcitqx5u2oeqnmn5bpcbiyd.onion host:librarymdiphasqw.onion
XX века роль инспектора Клузо играл Питер Селлерс, в римейках 2000-х годов — Стив Мартин. Серия фильмов дополнена мультсериалом, возникшим после выхода первых фильмов об Инспекторе Клузо. Самая первая мультипликационная картина с Пантерой — «The Pink Phink», вышедшая в прокат в 1964 году, получила премию «Оскар».
No information is available for this page.
No information is available for this page.
0 ori Încărcat de unknown DHT peer-uri 0 peer(s), ultimul update: 3 săptămâni în urmă Au Mulţumit ( 0 ) Lista celor care au mulțumit Închide Закрыть Daca observați viruși in fisiere , va rugăm să semnalați torrentul . Nu există comentarii Schimbul de informație este realizat de către utilizatorii siteului. Acest site
0 ori Încărcat de unknown DHT peer-uri 0 peer(s), ultimul update: 4 minute în urmă Au Mulţumit ( 0 ) Lista celor care au mulțumit Închide Закрыть Daca observați viruși in fisiere , va rugăm să semnalați torrentul . Nu există comentarii Schimbul de informație este realizat de către utilizatorii siteului. Acest site
pixels Height : 720 pixels Display aspect ratio : 16:9 Frame rate mode : Constant Frame rate : 23.976 (24000/1001) fps Original frame rate : 23.976 (23976/1000) fps Color space : YUV Chroma subsampling : 4:2:0 Bit depth : 8 bits Scan type : Progressive Bits/(Pixel*Frame) : 0.080 Stream size : 50.8 MiB (90%) Writing
16:52:11 Văzut 0 ori Încărcat de unknown DHT peer-uri 0 peer(s), ultimul update: 1 zi în urmă Au Mulţumit ( 0 ) Lista celor care au mulțumit Închide Закрыть Nu există comentarii Schimbul de informație este realizat de către utilizatorii siteului. Acest site este bazat pe voluntariat, de la utilizatori pentru
No information is available for this page.
0 06-12 2018 34.27 MB 0 0 unknown Various Artists - Timeless Moment, Vol. 01, Mixed and Compiled by Morttagua [2018 / MP3 / 320] [House] 14 0 06-11 2018 373.74 MB 1 0 unknown VA - Russian Trance [2018 / MP3 / 320] [Trance] 54 0 06-11 2018 649.45 MB 0 0 unknown VA - Новинки с разных популярных MP3 сайтов. [01.06.18]
pixels Height : 720 pixels Display aspect ratio : 16:9 Frame rate mode : Constant Frame rate : 23.976 (24000/1001) fps Color space : YUV Chroma subsampling : 4:2:0 Bit depth : 8 bits Scan type : Progressive Bits/(Pixel*Frame) : 0.080 Stream size : 307 MiB (90%) Writing library : x264 core 148 r2705 3f5ed56 Encoding
No information is available for this page.
xx) Owap 8 (+990 xx) Германия GastroGuide DE (+49 015,
16. Scaredy Cat 17. Porky Chops 18. Old Glory 19. Tale Of Two Kitties, A 20. Tweetie Pie 21. Fast And Furry-ous 22. Beep, Beep 23. Lovelorn Leghorn 24. For Scent-imental Reasons 25. Speedy Gonzales Disc 2: 01. One Froggy Evening 02. Three Little Bops 03. I Love To Singa 04. Katnip Kollege 05. The Dover Boys at Pimento
pixels Height : 576 pixels Display aspect ratio : 16:9 Frame rate : 50.000 fps Original frame rate : 25.000 fps Standard : PAL Resolution : 8 bits Colorimetry : 4:2:0 Scan type : Interlaced Scan order : Top Field First Bits/(Pixel*Frame) : 0.152 Stream size : 657 MiB (94%) Audio ID : 2 Format : MPEG Audio Format
pixels Height : 720 pixels Display aspect ratio : 16:9 Frame rate : 29.970 fps Resolution : 8 bits Colorimetry : 4:2:0 Scan type : Progressive Bits/(Pixel*Frame) : 0.159 Stream size : 1.82 GiB (83%) Title : rip by MySILU Writing library : x264 core 125 r2208 d9d2288 Encoding settings : cabac=1 / ref=8 /
pixels Height : 1 080 pixels Display aspect ratio : 16:9 Frame rate : 23.976 fps Color space : YUV Chroma subsampling : 4:2:0 Bit depth : 8 bits Scan type : Progressive Bits/(Pixel*Frame) : 0.459 Stream size : 26.0 GiB (85%) Title : The_Last_Emperor Language : English Default : No Forced : No Color primaries :
0 ori Încărcat de unknown DHT peer-uri 0 peer(s), ultimul update: 11 săptămâni în urmă Au Mulţumit ( 0 ) Lista celor care au mulțumit Închide Закрыть Nu există comentarii Schimbul de informație este realizat de către utilizatorii siteului. Acest site este bazat pe voluntariat, de la utilizatori pentru utilizatori.
pixels Height : 288 pixels Display aspect ratio : 2.40:1 Original display aspect ratio : 2.40:1 Frame rate mode : Constant Frame rate : 25.000 fps Color space : YUV Chroma subsampling : 4:2:0 Bit depth : 8 bits Scan type : Progressive Bits/(Pixel*Frame) : 0.377 Stream size : 1.63 GiB (79%) Writing library : x264 core
0 08-13 2017 4.14 GB 0 0 unknown Mahou Shoujo Nante Mou Ii Desu kara [Full] / Я не хочу больше быть волшебницей [AniDUB] [Season 2/Episode 1-12] [2016 / HDTVRip] [TV Anime] 12 0 08-13 2017 1.09 GB 1 0 unknown Lostorage Incited WIXOSS [Full] / Лострейдж: Пробуждение WIXOSS [AniDUB] [Episode 1-12] [2016 / HDTVRip] [TV
No information is available for this page.