About 651 results found.
Filter applied: domain = librarymdiphasqw.onion
Searches related to 127.0.0.1.xx.dis2.239554722.pixel.archiveiya74codqgiixo33q62qlrqtkgmcitqx5u2oeqnmn5bpcbiyd.onion host:librarymdiphasqw.onion
1.02 GB (1,094,266,880 bytes) Narcos.Mexico.S01E03_[scarabey.org].avi 0.99 GB (1,066,113,024 bytes) Narcos.Mexico.S01E05_[scarabey.org].avi 0.99 GB (1,063,217,152 bytes) Narcos.Mexico.S01E07_[scarabey.org].avi 945.51 MB (991,436,800 bytes) Narcos.Mexico.S01E08_[scarabey.org].avi 927.72 MB (972,785,664 bytes)
No information is available for this page.
1 920 pixels Height : 1 080 pixels Display aspect ratio : 16:9 Frame rate : 23.976 fps Color space : YUV Chroma subsampling : 4:2:0 Bit depth : 8 bits Scan type : Progressive Bits/(Pixel*Frame) : 0.167 Stream size : 7.35 GiB (78%) Title : RAV-anaglyph from Boss-Master Writing library : x264 core 115 r1995 c1e60b9
No information is available for this page.
No information is available for this page.
1 1 1-01 15/Aug/11 Pilot 2 1-02 22/Aug/11 Being Sutton 3 1-03 29/Aug/11 Double Dibs 4 1-04 05/Sep/11 Twinsense and Sensibility 5 1-05 12/Sep/11 Over Exposed 6 1-06 19/Sep/11 Bad Boys Break Hearts 7 1-07 26/Sep/11 Escape From Sutton
No information is available for this page.
No information is available for this page.
No information is available for this page.
No information is available for this page.
No information is available for this page.
No information is available for this page.
No information is available for this page.
No information is available for this page.
No information is available for this page.
No information is available for this page.
No information is available for this page.
No information is available for this page.
No information is available for this page.
1 280 pixels Height : 720 pixels Display aspect ratio : 16:9 Frame rate : 29.970 fps Resolution : 8 bits Colorimetry : 4:2:0 Scan type : Progressive Bits/(Pixel*Frame) : 0.159 Stream size : 1.82 GiB (83%) Title : rip by MySILU Writing library : x264 core 125 r2208 d9d2288 Encoding settings : cabac=1 / ref=8 /