About 159,132 results found. (Query 0.52717 seconds)
Searches related to 127.0.0.1.xx.dis1.240074125.pixel.archiveiya74codqgiixo33q62qlrqtkgmcitqx5u2oeqnmn5bpcbiyd.onion
1 (Pcvitori) zenit.senecac.on.ca » CSS guide zenit.senecac.on.ca » Dwwoodsi assignment 1 zenit.senecac.on.ca » Learning Collaborative Development Lab Fall 2008 Results zenit.senecac.on.ca » Liz Chak Assignment 1 zenit.senecac.on.ca » Mozilla.dev.embedding zenit.senecac.on.ca » Newsgroup
-1) width = src_width; 109 if (height == -1) height = src_height; 110 111 XCopyPlane( drawable_private- > xdisplay, 112 src_private- > xwindow, 113 drawable_private- > xwindow, 114 gc_private- > xgc, 115 xsrc, ysrc, 116 width, height, 117 xdest, ydest, 118 1 ); 119 } 120 121
0.415 Stream size : 1.71 GiB (78%) Writing library : XviD 1.2.1 (UTC 2008-12-04) Audio #1 ID : 1 Format : AC-3 Format/Info : Audio Coding 3 Mode extension : CM (complete main) Codec ID : 2000 Duration : 1h 52mn Bit rate mode : Constant Bit rate : 192 Kbps Channel(s) : 2 channels Channel positions : Front: L R Sampling
0 1,290 Google подвязка карты Kektus 06-11-2017 15:40 by malderfox 1 1,523 Google pixel 2 Vaultboy88 16-11-2017 14:14 by Vaultboy88 0 1,541 Gift Card No1 17-05-2017 18:26 by No1 0 1,866 genymotion как настроить? pegg 13-10-2016 18:10 by Lazy 4 1,389 gde cheknyt na priviazky paypal dark555 03-11-2016 21:35 by mandiuk 3
#1 pid: p116442 Автор: wh1te_raven Группа: Участники (Белый ник) Дата рег-ции: 2015-07-02 Дата поста: 2015-09-16 08 ч. Сижу вечером, попиваю свой любимый Mountain Dew Voltage. Загорелся взломом Wi-Fi, а чего бы и нет? Порыскав в сети, удалось выяснить, что главная уязвимость роутеров это WPS. 8-ми значный пин-код,
1번째 줄: 1번째 줄: − {{Template: 바로가기 }} + {{Template: 바로 가기 }} − < div style= " float: right; margin-left: 12px; " > __TOC__ < /div > + < div style= " float: right; margin-left: 12px; " > __TOC__ < /div > − * 여러분! 가급적이면 [[ 다크 웹 ]] 을 [[ 표면 웹 ]] 에 올리지 말아주세요! 경찰의 주목을 받고, 법적 규제의 대상이 될 수 있습니다. 자신이 다크 웹을 안다고 우월하다는 생각은 금물입니다! +
No information is available for this page.
1 (32-bit) 2006.01: A WMF hiba érintheti a Linux/BSD használókat is, ha Wine-t használnak 2006.04: Bezár a HUP? 2006.04: anr's brókenszoft ware (DrStock) 2006.11: Hova lett a Gabu cikke? 2007.01: Furcsa, de -ujjabban- mikor néha felszakadok a HUP-ra olvasgatás céljából, akkor csak azt figyelem, hol van több mint 50
1 (32-bit) 2006.01: A WMF hiba érintheti a Linux/BSD használókat is, ha Wine-t használnak 2006.04: Bezár a HUP? 2006.04: anr's brókenszoft ware (DrStock) 2006.11: Hova lett a Gabu cikke? 2007.01: Furcsa, de -ujjabban- mikor néha felszakadok a HUP-ra olvasgatás céljából, akkor csak azt figyelem, hol van több mint 50
Blog Stéphane Bortzmeyer: Accueil Mon blog Autres trucs Accueil Seulement les RFC Seulement les fiches de lecture Mon livre « Cyberstructure » Ève Recherche dans ce blog : Ce blog n'a d'autre prétention que de me permettre de mettre à la disposition de tous des petits textes que j'écris. On y parle surtout
1 280 pixels Height : 720 pixels Display aspect ratio : 16:9 Frame rate : 29.970 fps Resolution : 8 bits Colorimetry : 4:2:0 Scan type : Progressive Bits/(Pixel*Frame) : 0.159 Stream size : 1.82 GiB (83%) Title : rip by MySILU Writing library : x264 core 125 r2208 d9d2288 Encoding settings : cabac=1 / ref=8 /
1-44 (2012-2013) [MP3|320 кб/с] < Downtempo, Lounge, Chillout > Страницы: Пред. 1 , 2 , 3 , 4 , 5 , 6 , 7 След. Торрент-трекер NNM-Club -> Неофициальные сборники -> Instrumental/New Age/Meditative/Relax (сборники) Автор Сообщение VLAD1979 ® Uploader 100+ Стаж: 10 лет 10 мес. Сообщений: 265 Ratio: 147,127 Раздал: 241
1 2 3 wanderer Oct 25, 2013, 14:15 pm Index wanderer Oct 26, 2013, 07:09 am Quote: 1980-1990 PC Scene pack A Look in the past of some of the most near-comprehensive packs concerning Scene Release Games for PC(Personal Computer). You can play these games using an emulator called DOSBox. MORE INFO:
1: https://1fichier.com/?qbfmne7nk0 2: https://1fichier.com/?oekq69u5pr 3: https://1fichier.com/?l2n8tarm6l 4: https://1fichier.com/?te75g8yzto 5: https://1fichier.com/?a7z5e1yda9 6: https://1fichier.com/?d5i3091qur 7: https://1fichier.com/?nveez0nogd password: yrgjfgfthny54vhnvfqwchk,rrg56 CH archive has 10 folders
1: The user taps on the application icon, which opens the application Response from app: The application is initialised and the following data is sent and received by the app: Immediately after the app is opened, the following HTTP GET request is made to graph.facebook.com GET
0...9 Close Views: 878 More Next video Autoplay в сауне oleggp Бесплатные секс знакомства - http://meendo.epizy.com/ секс sex sukupuoli sexe geslacht Sex セックス порнография pornography pornografia pornographie pornografie Pornographie ポルノ эротика erotica eroottinen kirjallisuus érotique erotiek Erotik エロチカ цыпочки
1 2 Вперед #1 2014-09-22 12 ч. anshlag я устал я ухожу </> 438a5fb3c5ce </> 2014-04-30 </> 268 </> База пользователей verified.cm Суп коты. Вот тут можно скачать базу юзернеймов для брута. Удачной охоты. Редактировался anshlag (2014-09-22 12 ч.) Поблагодарил(а) Nikkon, Zed #2 2014-10-22 23 ч. Aggressive начинающий </>
(1).avi 183 MB Foot Fetish Video (2).mp4 131 MB Foot Fetish Video (3).mpg 127 MB 230 hidden files 6 GB magnet:?xt=urn:btih:9dda989597... Paige Turnah videos [OnlyFans.com] 466 files 3 GB found 1 year ago Paige Turnah videos [OnlyFans.com] [0028046] #EXCLUSIVE twerk video [2016-11-25].mp4 9 MB [0083906] Foot fetish #
Italy Vintage Porno In Addition To Confessedly Approving Ricki Raxxx Porno Nude ~ Group Porno Video ~ She let go of Lionel now. She was still on his chest and stomach. Her moans were coming louder and longer now. She could feel an orgasm building up insi